请选择 进入手机版 | 继续访问电脑版

YMLY-影迷乐园-特效字幕 蓝光原盘 1080P 高清动漫电影电视剧

 找回密码
 立即注册
搜索
查看: 1438|回复: 56

[美国] [百度+115][2022][1080P][时间旅行者的妻子][外挂中英字幕][6集全][MKV][17.5GB][HMAX.WEB-DL.DD5.1.x264-NTb]

[复制链接]
  • TA的每日心情
    奋斗
    7 天前
  • 签到天数: 999 天

    [LV.10]以坛为家III

    137

    主题

    5918

    帖子

    648

    积分

    专业影迷

    Rank: 8Rank: 8

    积分
    648

    小土豪勋章十二生肖之蛇双鱼座勋章土豪勋章影迷男神金话筒灌水之王

    发表于 2024-1-24 17:19:06 | 显示全部楼层 |阅读模式
    下载说明:

    百度云网盘分享,如有链接失效,请第一时间站内短消息通知我,上线后会第一时间补发!

    字幕每集逐一核对,完美匹配,无需调轴!

    ----字幕来源网络感谢字幕原发布人员,特此鸣谢!----




    ◎译  名 时间旅行者的妻子
    ◎片  名 The Time Traveler’s Wife
    ◎年  代 2022
    ◎产  地 美国
    ◎类  别 剧情 / 爱情 / 科幻 / 奇幻
    ◎语  言 英语
    ◎上映日期 2022-05-15(美国) / 2022-05-16(英国)
    ◎IMDb评分  7.7 / 10 from 17k users
    ◎IMDb链接  https://www.imdb.com/title/tt8783930/
    ◎豆瓣评分 8.2 / 10 from 3,455 users
    ◎豆瓣链接 https://movie.douban.com/subject/30290864/
    ◎季  数 1
    ◎集  数 6
    ◎单集片长 50分钟
    ◎又      名   时空旅人之妻(台) / 时光旅的恋人(港)
    ◎导      演   大卫·努特尔
    ◎编      剧   史蒂文·莫法特 / 奥黛丽·尼芬格
    ◎主      演   露丝·莱斯利 / 西奥·詹姆斯 / 詹森·大卫 / Barry Kolman / 凯特·西格尔 / 杰米·雷·纽曼 / 乔什·斯坦伯 / 泰勒·理查森 / 斯潘塞·豪斯 / 威尔·伯瑞 / 戴斯敏·博格斯 / Chelsea Frei / 迈克尔·帕克 / 马西娅·德波尼斯 / Everleigh McDonell / 丽贝卡·拉迪西奇 / 芬纳蒂·斯蒂夫斯

    ◎标  签 科幻 | 爱情 | 奇幻 | 剧情 | 悬疑 | 美国

    ◎简  介

          本剧改编自Audrey Niffenegger的同名小说,讲述Clare及Henry之间复杂、科幻的爱情故事。
      因为Henry拥有穿梭时空的能力,但他却没法控制,因此两人虽然相爱却经常没法长久待在一起。


    影片参数

    1. General
    2. General
    3. Unique ID                      : 35747398333092639519978395449712816910 (0x1AE4B2D02228A665FC6CD8C67F19B30E)
    4. Complete name                  :The.Time.Travelers.Wife.S01E01.1080p.HMAX.WEB-DL.DD5.1.x264-NTb.mkv
    5. Format                         : Matroska
    6. Format version                 : Version 4
    7. File size                      : 3.03 GiB
    8. Duration                       : 50 min 30 s
    9. Overall bit rate mode          : Variable
    10. Overall bit rate               : 8 597 kb/s
    11. Frame rate                     : 23.976 FPS
    12. Writing application            : mkvmerge v64.0.0 ('Willows') 64-bit
    13. Writing library                : libebml v1.4.2 + libmatroska v1.6.4

    14. Video
    15. ID                             : 1
    16. Format                         : AVC
    17. Format/Info                    : Advanced Video Codec
    18. Format profile                 : High@L4
    19. Format settings                : CABAC / 4 Ref Frames
    20. Format settings, CABAC         : Yes
    21. Format settings, Reference fra : 4 frames
    22. Codec ID                       : V_MPEG4/ISO/AVC
    23. Duration                       : 50 min 30 s
    24. Bit rate mode                  : Variable
    25. Bit rate                       : 8 250 kb/s
    26. Maximum bit rate               : 12.4 Mb/s
    27. Width                          : 1 920 pixels
    28. Height                         : 1 080 pixels
    29. Display aspect ratio           : 16:9
    30. Frame rate mode                : Constant
    31. Frame rate                     : 23.976 (24000/1001) FPS
    32. Color space                    : YUV
    33. Chroma subsampling             : 4:2:0
    34. Bit depth                      : 8 bits
    35. Scan type                      : Progressive
    36. Bits/(Pixel*Frame)             : 0.166
    37. Stream size                    : 2.90 GiB (96%)
    38. Writing library                : x264 core 157 r2965 861cec4
    39. Encoding settings              : cabac=1 / ref=4 / deblock=1:0:0 / analyse=0x3:0x113 / me=hex / subme=7 / psy=1 / psy_rd=1.00:0.00 / mixed_ref=1 / me_range=16 / chroma_me=1 / trellis=1 / 8x8dct=1 / cqm=0 / deadzone=21,11 / fast_pskip=1 / chroma_qp_offset=-2 / threads=34 / lookahead_threads=5 / sliced_threads=0 / nr=0 / decimate=1 / interlaced=0 / bluray_compat=0 / constrained_intra=0 / bframes=3 / b_pyramid=2 / b_adapt=1 / b_bias=0 / direct=1 / weightb=1 / open_gop=0 / weightp=2 / keyint=96 / keyint_min=96 / scenecut=40 / intra_refresh=0 / rc_lookahead=40 / rc=2pass / mbtree=1 / bitrate=8250 / ratetol=1.0 / qcomp=0.60 / qpmin=0 / qpmax=69 / qpstep=4 / cplxblur=20.0 / qblur=0.5 / vbv_maxrate=12375 / vbv_bufsize=6187 / nal_hrd=vbr / filler=0 / ip_ratio=1.40 / aq=1:1.00
    40. Default                        : Yes
    41. Forced                         : No
    42. Color range                    : Limited
    43. Color primaries                : BT.709
    44. Transfer characteristics       : BT.709
    45. Matrix coefficients            : BT.709

    46. Audio
    47. ID                             : 2
    48. Format                         : AC-3
    49. Format/Info                    : Audio Coding 3
    50. Commercial name                : Dolby Digital
    51. Codec ID                       : A_AC3
    52. Duration                       : 50 min 30 s
    53. Bit rate mode                  : Constant
    54. Bit rate                       : 384 kb/s
    55. Channel(s)                     : 6 channels
    56. Channel layout                 : L R C LFE Ls Rs
    57. Sampling rate                  : 48.0 kHz
    58. Frame rate                     : 31.250 FPS (1536 SPF)
    59. Compression mode               : Lossy
    60. Stream size                    : 139 MiB (4%)
    61. Language                       : English (US)
    62. Service kind                   : Complete Main
    63. Default                        : Yes
    64. Forced                         : No

    复制代码



    影片截图

    截图画质不代表影片画质,全季字幕样式均为截图样式,截图自S01E01









    购买主题 已有 6 人购买  本主题需向作者支付 50 大洋 才能浏览
    我只是一名“搬运工”,只会转载,不会制作哟!
    回复

    使用道具 举报

  • TA的每日心情
    开心
    7 天前
  • 签到天数: 677 天

    [LV.9]以坛为家II

    3

    主题

    1万

    帖子

    663

    积分

    专业影迷

    Rank: 8Rank: 8

    积分
    663
    发表于 2024-1-24 17:41:28 | 显示全部楼层
    感谢楼主,多谢分享好作品
    回复

    使用道具 举报

  • TA的每日心情
    开心
    2 小时前
  • 签到天数: 195 天

    [LV.7]常住居民III

    4

    主题

    1864

    帖子

    243

    积分

    高级影迷

    Rank: 4

    积分
    243
    发表于 2024-1-24 23:18:21 | 显示全部楼层
    多谢大佬分享
    回复

    使用道具 举报

  • TA的每日心情
    开心
    22 小时前
  • 签到天数: 907 天

    [LV.10]以坛为家III

    15

    主题

    3999

    帖子

    556

    积分

    专业影迷

    Rank: 8Rank: 8

    积分
    556
    发表于 2024-1-25 00:47:55 | 显示全部楼层
    查看本帖隐藏内容请回复
    回复

    使用道具 举报

  • TA的每日心情
    无聊
    17 小时前
  • 签到天数: 1107 天

    [LV.10]以坛为家III

    5

    主题

    4135

    帖子

    549

    积分

    专业影迷

    Rank: 8Rank: 8

    积分
    549
    发表于 2024-1-25 01:24:00 | 显示全部楼层
    为何越来越不喜欢奇幻的啊
    回复

    使用道具 举报

  • TA的每日心情
    开心
    18 小时前
  • 签到天数: 1035 天

    [LV.10]以坛为家III

    0

    主题

    9997

    帖子

    911

    积分

    资深影迷

    Rank: 10Rank: 10Rank: 10

    积分
    911
    发表于 2024-1-25 04:35:27 | 显示全部楼层
    感谢分享好资源
    回复

    使用道具 举报

  • TA的每日心情
    开心
    16 小时前
  • 签到天数: 727 天

    [LV.9]以坛为家II

    0

    主题

    5492

    帖子

    318

    积分

    超级影迷

    Rank: 6Rank: 6

    积分
    318
    发表于 2024-1-25 06:05:08 | 显示全部楼层
    感谢分享!!
    回复

    使用道具 举报

  • TA的每日心情
    擦汗
    11 小时前
  • 签到天数: 944 天

    [LV.10]以坛为家III

    6

    主题

    7392

    帖子

    1140

    积分

    资深影迷

    Rank: 10Rank: 10Rank: 10

    积分
    1140

    小土豪勋章

    发表于 2024-1-25 06:28:10 | 显示全部楼层
    感谢资源分享!
    回复

    使用道具 举报

  • TA的每日心情
    郁闷
    14 小时前
  • 签到天数: 780 天

    [LV.10]以坛为家III

    6

    主题

    3810

    帖子

    371

    积分

    超级影迷

    Rank: 6Rank: 6

    积分
    371
    发表于 2024-1-25 06:36:32 | 显示全部楼层
    感谢楼主,多谢分享好作品
    回复

    使用道具 举报

  • TA的每日心情
    开心
    6 小时前
  • 签到天数: 905 天

    [LV.10]以坛为家III

    1

    主题

    8996

    帖子

    761

    积分

    专业影迷

    Rank: 8Rank: 8

    积分
    761
    发表于 2024-1-25 08:07:10 | 显示全部楼层
    谢谢分享啊··
    回复

    使用道具 举报

    您需要登录后才可以回帖 登录 | 立即注册

    本版积分规则

    QQ|Archiver|手机版|小黑屋|影迷乐园

    GMT+8, 2024-4-20 22:30 , Processed in 0.094557 second(s), 27 queries .

    Powered by Discuz! X3.4

    Copyright © 2001-2020, Tencent Cloud.

    快速回复 返回顶部 返回列表